SMILF (2017) Season 02 S02 (1080p AMZN WEB-DL x265 10bit AC3 5 1


    Seeders : 4      Leechers : 3

Hash :FC0940F0F12CEDFE174CE40F3B3966A20567191A
Added :4 days ago in TV shows
Size :9.77 GB
Stream :Watch Full Movie @ Movie4u


SMILF (2017) Season 02 S02 (1080p AMZN WEB-DL x265 10bit AC3 5 1
Use a VPN Service to Download torrents Anonymously.







Warning! Please Download Torrents with a VPN.
Your IP Address is 34.229.151.87.   And Location is United States, Ashburn
Your Internet Service Provider and Government can track your Online Activity!  Protect yourself from expensive lawsuits and fines NOW!
We Strongly Recommend Using Best Cheapest VPN to Anonymize your Torrenting.

Note :

Please Update (Trackers Info) Before Start Torrents Downloading to See Updated Seeders And Leechers for Batter Download Speed.

Trackers List

Tracker NameLast CheckStatusSeedersLeechers
udp://tracker.coppersurfer.tk:6969/announceYesterdaysuccess48
udp://tracker.tiny-vps.com:6969/announce5 hours agosuccess40
udp://tracker.pirateparty.gr:6969/announce5 hours agosuccess32
udp://tracker.internetwarriors.net:1337/announce5 hours agosuccess30
udp://tracker.opentrackr.org:1337/announce5 hours agosuccess32
udp://thetracker.org:80/announce5 hours agosuccess20
udp://9.rarbg.me:2710/announce5 hours agosuccess12
udp://9.rarbg.to:2720/announce5 hours agosuccess12
udp://9.rarbg.to:2770/announce5 hours agosuccess12
udp://9.rarbg.to:2730/announce5 hours agosuccess12
udp://9.rarbg.to:2740/announce5 hours agosuccess12
udp://9.rarbg.me:2770/announce5 hours agosuccess12
udp://9.rarbg.me:2730/announce5 hours agosuccess12
udp://9.rarbg.me:2740/announce5 hours agosuccess12
udp://ipv4.tracker.harry.lu:80/announce5 hours agosuccess10
udp://bt.xxx-tracker.com:2710/announce5 hours agosuccess10
udp://9.rarbg.to:2710/announce5 hours agosuccess12
udp://tracker.justseed.it:1337/announce5 hours agosuccess00
http://bt.acg.gg:1578/announce5 hours agofailed00
udp://tracker.port443.xyz:6969/announce5 hours agofailed00
udp://tracker.acg.gg:2710/announce5 hours agofailed00
udp://asnet.pw:2710/announce5 hours agofailed00
udp://tracker.cyberia.is:6969/announce5 hours agosuccess00
udp://inferno.demonoid.pw:3418/announce5 hours agofailed00
udp://tracker.cypherpunks.ru:6969/announce5 hours agofailed00
udp://public.popcorn-tracker.org:6969/announce5 hours agofailed00
udp://exodus.desync.com:6969/announce5 hours agosuccess00
udp://shadowshq.yi.org:6969/announce5 hours agofailed00
udp://eddie4.nl:6969/announce5 hours agofailed00
http://share.camoe.cn:8080/announce5 hours agofailed00
udp://tracker.vanitycore.co:6969/announce5 hours agofailed00
udp://tracker.zer0day.to:1337/announce5 hours agofailed00
udp://tracker.coppersurfer.tk:80/announceYesterdayfailed00
udp://ipv6.tracker.harry.lu:80/announce5 hours agosuccess00
udp://tracker.trackerfix.com:80/announce5 hours agofailed00
http://tracker3.itzmx.com:8080/announce5 hours agofailed00
udp://tracker.torrent.eu.org:4515 hours agosuccess00
udp://tracker.mg64.net:6969/announce5 hours agofailed00
udp://tracker.torrent.eu.org:451/announce5 hours agosuccess00
udp://open.stealth.si:80/announce5 hours agofailed00
udp://glotorrents.pw:6969/announce5 hours agofailed00
udp://p4p.arenabg.ch:1337/announce5 hours agofailed00



Torrent File Content (10 files)


SMILF (2017) Season 02 S02 (1080p AMZN WEB-DL x265 10bit AC3 5.1 Qman) [UTR]
     SMILF.S02E01.1080p.AMZN.WEB-DL.x265.10bit.EAC3.6.0-Qman[UTR].mkv -
884 MB

     SMILF.S02E02.1080p.AMZN.WEB-DL.x265.10bit.EAC3.6.0-Qman[UTR].mkv -
774.35 MB

     SMILF.S02E03.1080p.AMZN.WEB-DL.x265.10bit.EAC3.6.0-Qman[UTR].mkv -
985.05 MB

     SMILF.S02E04.1080p.AMZN.WEB-DL.x265.10bit.EAC3.6.0-Qman[UTR].mkv -
1006.61 MB

     SMILF.S02E05.1080p.AMZN.WEB-DL.x265.10bit.EAC3.6.0-Qman[UTR].mkv -
1.18 GB

     SMILF.S02E06.1080p.AMZN.WEB-DL.x265.10bit.EAC3.6.0-Qman[UTR].mkv -
878.29 MB

     SMILF.S02E07.1080p.AMZN.WEB-DL.x265.10bit.EAC3.6.0-Qman[UTR].mkv -
1.06 GB

     SMILF.S02E08.1080p.AMZN.WEB-DL.x265.10bit.EAC3.6.0-Qman[UTR].mkv -
1.32 GB

     SMILF.S02E09.1080p.AMZN.WEB-DL.x265.10bit.EAC3.6.0-Qman[UTR].mkv -
1.03 GB

     SMILF.S02E10.1080p.AMZN.WEB-DL.x265.10bit.EAC3.6.0-Qman[UTR].mkv -
774.28 MB



Description









Media Information

Media Information

Code:General
Format : Matroska
Format version : Version 4 / Version 2
File size : 884 MiB
Duration : 30 min 23 s
Overall bit rate : 4 066 kb/s
Encoded date : UTC 2019-01-08 02:19:37
Writing application : mkvmerge v30.1.0 ('Forever And More') 64-bit
Writing library : libebml v1.3.6 + libmatroska v1.4.9

Video
ID : 1
Format : HEVC
Format/Info : High Efficiency Video Coding
Format profile : Main [email protected]@Main
Codec ID : V_MPEGH/ISO/HEVC
Duration : 30 min 23 s
Bit rate : 3 424 kb/s
Width : 1 920 pixels
Height : 1 080 pixels
Display aspect ratio : 16:9
Frame rate mode : Constant
Frame rate : 23.976 (24000/1001) FPS
Color space : YUV
Chroma subsampling : 4:2:0
Bit depth : 10 bits
Bits/(Pixel*Frame) : 0.069
Stream size : 744 MiB (84%)
Writing library : x265 3.0_RC+2-8f1c154aae5e:[Windows][GCC 8.2.0][64 bit] 10bit
Encoding settings : cpuid=1111039 / frame-threads=2 / numa-pools=4 / wpp / no-pmode / no-pme / no-psnr / no-ssim / log-level=2 / input-csp=1 / input-res=1920x1080 / interlace=0 / total-frames=43722 / level-idc=0 / high-tier=1 / uhd-bd=0 / ref=4 / no-allow-non-conformance / no-repeat-headers / annexb / no-aud / no-hrd / info / hash=0 / no-temporal-layers / open-gop / min-keyint=23 / keyint=250 / gop-lookahead=0 / bframes=8 / b-adapt=2 / b-pyramid / bframe-bias=0 / rc-lookahead=50 / lookahead-slices=4 / scenecut=40 / radl=0 / no-splice / no-intra-refresh / ctu=64 / min-cu-size=8 / no-rect / no-amp / max-tu-size=32 / tu-inter-depth=1 / tu-intra-depth=1 / limit-tu=0 / rdoq-level=2 / dynamic-rd=0.00 / no-ssim-rd / signhide / no-tskip / nr-intra=0 / nr-inter=0 / no-constrained-intra / no-strong-intra-smoothing / max-merge=3 / limit-refs=3 / limit-modes / me=3 / subme=3 / merange=57 / temporal-mvp / weightp / no-weightb / no-analyze-src-pics / deblock=1:1 / no-sao / no-sao-non-deblock / rd=4 / no-early-skip / no-rskip / no-fast-intra / no-tskip-fast / no-cu-lossless / no-b-intra / no-splitrd-skip / rdpenalty=0 / psy-rd=1.40 / psy-rdoq=1.00 / no-rd-refine / no-lossless / cbqpoffs=0 / crqpoffs=0 / rc=crf / crf=21.0 / qcomp=0.60 / qpstep=4 / stats-write=0 / stats-read=0 / ipratio=1.40 / pbratio=1.30 / aq-mode=2 / aq-strength=1.00 / cutree / zone-count=0 / no-strict-cbr / qg-size=32 / no-rc-grain / qpmax=69 / qpmin=0 / no-const-vbv / sar=0 / overscan=0 / videoformat=5 / range=0 / colorprim=2 / transfer=2 / colormatrix=2 / chromaloc=0 / display-window=0 / max-cll=0,0 / min-luma=0 / max-luma=1023 / log2-max-poc-lsb=8 / vui-timing-info / vui-hrd-info / slices=1 / no-opt-qp-pps / no-opt-ref-list-length-pps / no-multi-pass-opt-rps / scenecut-bias=0.05 / no-opt-cu-delta-qp / no-aq-motion / no-hdr / no-hdr-opt / no-dhdr10-opt / no-idr-recovery-sei / analysis-reuse-level=5 / scale-factor=0 / refine-intra=0 / refine-inter=0 / refine-mv=0 / refine-ctu-distortion=0 / no-limit-sao / ctu-info=0 / no-lowpass-dct / refine-analysis-type=0 / copy-pic=1 / max-ausize-factor=1.0 / no-dynamic-refine / no-single-sei / no-hevc-aq / qp-adaptation-range=1.00
Language : English
Default : Yes
Forced : No

Audio
ID : 2
Format : E-AC-3
Format/Info : Enhanced Audio Coding 3
Format settings, Endianness : Big
Codec ID : A_EAC3
Duration : 30 min 23 s
Bit rate mode : Constant
Bit rate : 640 kb/s
Channel(s) : 6 channels
Channel positions : Front: L C R, Side: L R, LFE
Sampling rate : 48.0 kHz
Frame rate : 187.500 FPS (256 spf)
Compression mode : Lossy
Stream size : 139 MiB (16%)
Language : English
Default : Yes
Forced : No

Subtitle
ID : 3
Format : UTF-8
Codec ID : S_TEXT/UTF8
Codec ID/Info : UTF-8 Plain Text
Duration : 30 min 4 s
Bit rate : 86 b/s
Count of elements : 742
Stream size : 19.1 KiB (0%)
Language : English
Default : Yes
Forced : No



Source Information

Code:Release:
Unknown Source/NO-GROUP




We have no issue with individuals posting or re-uploading our torrents on a platform we aren't on. However, if this is something you'd like to do, please do so in a 'as-is' format. We ask that you do not create a new torrent, include all descriptions you see above including the UTR logo, tags, notes and screenshots. If you'd like to become a permanent poster on a website we don't post to, feel free to get in contact with a UniTeam member.


Related torrents

Torrent NameAddedSizeSeedLeechHealth
2 months ago - in Other15.57 GB42
3 months ago - in TV shows9.5 GB00
5 months ago - in TV shows11.01 GB312
7 months ago - in Other4.84 GB35
6 days ago - in TV shows21.45 GB13
7 months ago - in Other12.57 GB00

Note :

Feel free to post any comments about this torrent, including links to Subtitle, samples, screenshots, or any other relevant information. Please Dont Download anything from Comments And Links to Streaming Sites like Watch Online SMILF (2017) Season 02 S02 (1080p AMZN WEB-DL x265 10bit AC3 5 1 Full Movie free etc.

Comments (0 Comments)




Please login or create a FREE account to post comments

Latest Searches